Достать ножи: Стеклянная луковица

MVO

Добыча

Дубляж

Уэнсдэй

1 сезон

Тор

Дубляж

13 клиническая

1 сезон

Жестокая ночь

MVO

Одни из нас

1 сезон

Deluxe

pack

Рекомендуем

30

Пиратка

ВАЖНО

ВАЖНО

Ghostwire

Пиратка

jed

RePack

nioh2

RePack

RDR2

RePack

NEED FOR SPEED™ PAYBACK

RePack

скачать торрент

Кинопоиск HD

Острые козырьки 6 сезон

6 сезон

FAR CRY 6

RePack

скачать торрент

Лицензия

скачать торрент

MVO

1

1 сезон

скачать торрент

1 сезон

скачать торрент

Лицензия

  

Жена олигарха / Сезон: 2 / Серии: 1-13 из 17 (Мария Кравченко (II) [2022, Комедия, WEB-DL 1080p]

Жена олигарха через торрент 02d2.vidak.icu

Раздают: 2 [ 0 KB/s ] Качают: 4 [ 0 KB/s ]
Размер: 9.24 GB | Добавлен: 1 д. 12 ч. назад | Торрент скачан:4 раза
Смотреть онлайн | Скачать | Поддержите нас   

09-01-2023 16:52 Жена олигарха Скачать торрент  

Жена олигарха 2
Год выпуска: 2022
Страна: Россия
Жанр: Комедия
Продолжительность: ~ 00:25:00
Перевод: Не требуется
Субтитры: отсутствуют

Режиссер: Мария Кравченко (II)

rating

В ролях: Елена Подкаминская, Владимир Гостюхин, Маргарита Дьяченкова, Кай Алекс Гетц, Антон Филипенко, Александр Обласов, Евгения Капралова, Даниил Киселев, Алексей Маклаков, Вадим Соснин, Людмила Артемьева, Валерий Панков, Сандра Сантонес, Анастасия Матвеева, Анастасия Калашникова, Грув, Денис Варенов, Юлия Акимова, Светлана Нестерова, Евгений Пилипенко, Марина Барсукова, Александр Кузнецов, Вадим Салахов, Антон Никушин, Мария Букнис, Генриетта Автушенко, Владимир Якимов, Михаил Коновалов, Игорь Трафлялин, Виктор Боборыкин

Описание: После присвоения «Кирзачсумкапрому» статуса исторического памятника хозяйка завода Альбина ищет способы вернуть его в строй. Не в силах достучаться до местного мэра-лентяя, экс-миллионерша из Лондона решает выдвинуть свою кандидатуру на выборах. Правда, погружаясь в мир политики, просветлённая йогиня не замечает, как сама становится на скользкую дорожку.

Качество: WEB-DL 1080p
Формат: MKV

Видео: MPEG-4 AVC, 1920x1080, ~ 3800 Кбит/с, 0.073 bit/pixel, 25 Кадр/с
Аудио: 48.0 kHz, AC3 Dolby Digital, 2/0 (L,R) ch, ~ 192 kbps
скриншот  скриншот  скриншот  скриншот  скриншот  скриншот  

Общее
Уникальный идентификатор : 190033583348099141251790253165916589637 (0x8EF7230951677CC91E1D908465420E45)
Полное имя : C:\Zhena.oligarha.S02.2022.WEB-DL.1080p\Zhena.oligarha.S02.E01.2022.WEB-DL.1080p.mkv
Формат : Matroska
Версия формата : Version 4
Размер файла : 719 Мбайт
Продолжительность : 25 м. 15 с.
Общий поток : 3 978 Кбит/сек
Название фильма : Zhena.oligarha.S02.E01.2022.WEB-DL.1080p
Дата кодирования : UTC 2023-01-09 16:26:31
Программа кодирования : mkvmerge v72.0.0 ('Minuano (Six-eight)') 64-bit
Библиотека кодирования : libebml v1.4.4 + libmatroska v1.7.1
Attachments : poster.jpg

Видео
Идентификатор : 1
Формат : AVC
Формат/Информация : Advanced Video Codec
Профиль формата : [email protected]
Настройки формата : CABAC / 4 Ref Frames
Параметр CABAC формата : Да
Параметр RefFrames формата : 4 кадра
Параметр GOP формата : M=4, N=50
Идентификатор кодека : V_MPEG4/ISO/AVC
Продолжительность : 25 м. 15 с.
Битрейт : 3 783 Кбит/сек
Ширина : 1 920 пикселей
Высота : 1 080 пикселей
Соотношение сторон : 16:9
Режим частоты кадров : Постоянный
Частота кадров : 25,000 кадров/сек
Стандарт вещания : PAL
Цветовое пространство : YUV
Субдискретизация насыщенности : 4:2:0
Битовая глубина : 8 бит
Тип развёртки : Прогрессивная
Бит/(Пиксели*Кадры) : 0.073
Размер потока : 684 Мбайт (95%)
Default : Да
Forced : Нет
Цветовой диапазон : Limited
Основные цвета : BT.709
Характеристики трансфера : BT.709
Коэффициенты матрицы : BT.709

Аудио
Идентификатор : 2
Формат : AC-3
Формат/Информация : Audio Coding 3
Коммерческое название : Dolby Digital
Идентификатор кодека : A_AC3
Продолжительность : 25 м. 15 с.
Вид битрейта : Постоянный
Битрейт : 192 Кбит/сек
Каналы : 2 канала
Channel layout : L R
Частота : 48,0 КГц
Частота кадров : 31,250 кадров/сек (1536 SPF)
Метод сжатия : С потерями
Размер потока : 34,7 Мбайт (5%)
Заголовок : [Original | 2.0 AC-3 Audio]
Язык : Russian
Service kind : Complete Main
Default : Да
Forced : Нет

Внимание! Раздача ведётся путём добавления новых серий; при каждом добавлении создаётся новый торрент.
Чтобы начать докачку новой серии, пользователям необходимо сделать следующее:
1. Остановить скачивание;
2. Удалить старый торрент у себя из клиента (старые серии удалять не надо);
3. Скачать новый торрент и запустить его у себя в клиенте вместо старого, при этом указать клиенту путь в старую папку куда и должно происходить скачивание новых серий. Ваш клиент при этом должен произвести хеширование (проверку) старой папки и будет докачивать только те серии, которых у вас ещё нет. Старые серии при этом не удаляются, а продолжают раздаваться! Eсли вы уже удалили старые серии, то предотвратить повторную закачку старых серий можно, отжав галочку в соответствующих местах при запуске нового торрента.




Скачать Жена олигарха через торрент https://i121.fastpic.org/big/2023/0109/f7/fa5e302af50123b6a12ff49ec2e374f7.jpg Скачать, смотреть онлайн Жена олигарха бесплантно в хорошем качестве Описание: После присвоения «Кирзачсумкапрому» статуса исторического памятника хозяйка завода Альбина ищет способы вернуть его в строй. Не в ... 9 10 9
Торрент: Зарегистрирован [2023-01-26 15:11] · скачан: 4 раз
Статус: √ проверено
Размер: 9.24 GB
Как cкачать? Как скачать Жена олигарха через торрент | UTorrent

% Раздел Тема Автор DL S | L
Наши сериалы [ 3.92 GB ] Жена олигарха / Сезон: 2 / Серии: 1-13 из 17 | | DLRip bober100 Скачать
3 | 2
Наши сериалы [ 10.52 GB ] Жена олигарха / Сезон: 1 / Серии: 1-17 из 17 | | 1080p bober100 Скачать
2 | 0
Наши сериалы [ 5.14 GB ] Жена олигарха / Сезон: 1 / Серии: 1-17 из 17 | | DLRip-AVC bober100 Скачать
2 | 0
Наши сериалы [ 6.26 GB ] Жена олигарха / Сезон: 1 / Серии: 1-17 из 17 | | 720p bober100 Скачать
2 | 0
Наши сериалы [ 5.76 GB ] Жена олигарха / Сезон: 1 / Серии: 1-17 из 17 | | DLRip bober100 Скачать
4 | 0

28-11-2019 20:33  


Отключить вcю реклaмy на сайте, в т.ч. и в плеере онлайн просмотра!

    Дорогой пользователь! Огромная просьба, поблагодарите релизера, оцените раздачу и оставьте свои комментарий, если Вы скачали Жена олигарха через торрент бесплатно!!
    Комментировать посты могут только пользователи прошедшие не сложную регистрацию
    Показать сообщения:    


    Жена олигарха через торрент
    Скачать бесплатно Жена олигарха
    Жена олигарха скачать торрент
    Жена олигарха смотреть онлайн
    Cкачать фильм Жена олигарха бесплатно
    Жена олигарха скачать торрент в хорошем качестве
    Жена олигарха смотреть онлайн бесплатно в хорошем качестве
    Вы не можете начинать темы
    Вы не можете отвечать на сообщения
    Вы не можете редактировать свои сообщения
    Вы не можете удалять свои сообщения
    Вы не можете голосовать в опросах
    Вы не можете прикреплять файлы к сообщениям
    Вы можете скачивать файлы
    Жена олигарха / Сезон: 2 / Серии: 1-13 из 17 [2022, Комедия, WEB-DL 1080p] смотреть онлайн, скачать торрент picoco.icu