Достать ножи: Стеклянная луковица

MVO

Добыча

Дубляж

Уэнсдэй

1 сезон

Тор

Дубляж

13 клиническая

1 сезон

Жестокая ночь

MVO

Одни из нас

1 сезон

Deluxe

pack

Рекомендуем

30

Пиратка

ВАЖНО

ВАЖНО

Ghostwire

Пиратка

jed

RePack

nioh2

RePack

RDR2

RePack

NEED FOR SPEED™ PAYBACK

RePack

скачать торрент

Кинопоиск HD

Острые козырьки 6 сезон

6 сезон

FAR CRY 6

RePack

скачать торрент

Лицензия

скачать торрент

MVO

1

1 сезон

скачать торрент

1 сезон

скачать торрент

Лицензия

  

В лесу не сношаться! 2 / Don't Fuck in the Woods 2 (Шон Баркетт) [2022, Ужасы, BDRip 1080p] DVO [Yuka_chan & datynet]

В лесу не сношаться! 2 через торрент 02d2.vidak.icu

Раздают: 1 [ 0 KB/s ]
Размер: 6.35 GB | Добавлен: 18 д. назад | Торрент скачан:67 раз
Смотреть онлайн | Скачать | Поддержите нас   

09-01-2023 09:27 В лесу не сношаться! 2 Скачать торрент  

В лесу не сношаться! 2
Don't Fuck in the Woods 2

Год выпуска: 2022
Страна: США
Выпущено: Concept Media, Cyfuno Ventures, Studio 605
Жанр: Ужасы
Продолжительность: 01:27:30
Перевод: Любительский (двухголосый) | Yuka_chan & datynet
Субтитры: Aнглийские

Режиссер: Шон Баркетт

rating

В ролях: Джули Энн Прескотт, Брэнди Мэйсон, Кайли Уильямс, Марк Джастис, Бриттани Блэнтон, Кензи Филлипс, Джейсон Кроу, Чейен Гордон, Саванна Ховард, Кайла Элизабет

Описание: Вожатые летнего лагеря Пайн-Хиллз готовят территорию к сезону. Пока они всё обустраивают, в лагерь проникает странная окровавленная девушка. И что-то зловещее неотступно следует за ней...

Качество: BDRip 1080p
Формат: MKV

Видео: MPEG-4 AVC, 10.0 Mбит/с, 1920x816
Аудио #1: AC3, 2 ch, 192 Кбит/с | RUS |
Аудио #2: AC3, 2 ch, 192 Кбит/с | ENG |
скриншот  скриншот  скриншот  скриншот  скриншот  скриншот  

General
Unique ID : 70204535665325149220105654059918333054 (0x34D0E6D8E39C89052E3D09250092947E)
Complete name : E:TorrentsDont.Fuck.In.The.Woods.2.2022.BDRip.1080p.mkv
Format : Matroska
Format version : Version 4
File size : 6.35 GiB
Duration : 1 h 27 min
Overall bit rate : 10.4 Mb/s
Movie name : Dont.Fuck.In.The.Woods.2.2022.BDRip.1080p
Encoded date : UTC 2023-01-02 14:09:53
Writing application : mkvmerge v59.0.0 ('Shining Star') 64-bit
Writing library : libebml v1.4.2 + libmatroska v1.6.4

Video
ID : 1
Format : AVC
Format/Info : Advanced Video Codec
Format profile : [email protected]
Format settings : CABAC / 5 Ref Frames
Format settings, CABAC : Yes
Format settings, Reference : 5 frames
Codec ID : V_MPEG4/ISO/AVC
Duration : 1 h 27 min
Bit rate : 10 000 kb/s
Width : 1 920 pixels
Height : 816 pixels
Display aspect ratio : 2.35:1
Frame rate mode : Constant
Frame rate : 23.976 (24000/1001) FPS
Color space : YUV
Chroma subsampling : 4:2:0
Bit depth : 8 bits
Scan type : Progressive
Bits/(Pixel*Frame) : 0.266
Stream size : 6.11 GiB (96%)
Writing library : x264 core 164 r3065 ae03d92
Encoding settings : cabac=1 / ref=5 / deblock=1:-3:-3 / analyse=0x3:0x133 / me=umh / subme=10 / psy=1 / psy_rd=1.00:0.00 / mixed_ref=1 / me_range=32 / chroma_me=1 / trellis=2 / 8x8dct=1 / cqm=0 / deadzone=21,11 / fast_pskip=0 / chroma_qp_offset=-2 / threads=15 / lookahead_threads=3 / sliced_threads=0 / nr=0 / decimate=0 / interlaced=0 / bluray_compat=0 / constrained_intra=0 / bframes=16 / b_pyramid=2 / b_adapt=2 / b_bias=0 / direct=3 / weightb=1 / open_gop=0 / weightp=2 / keyint=240 / keyint_min=24 / scenecut=40 / intra_refresh=0 / rc_lookahead=60 / rc=2pass / mbtree=0 / bitrate=10000 / ratetol=1.0 / qcomp=0.60 / qpmin=0 / qpmax=69 / qpstep=4 / cplxblur=20.0 / qblur=0.5 / vbv_maxrate=62500 / vbv_bufsize=78125 / nal_hrd=none / filler=0 / ip_ratio=1.40 / pb_ratio=1.30 / aq=2:1.00
Default : Yes
Forced : No
Color range : Limited
Color primaries : BT.709
Transfer characteristics : BT.709
Matrix coefficients : BT.709

Audio #1
ID : 2
Format : AC-3
Format/Info : Audio Coding 3
Commercial name : Dolby Digital
Codec ID : A_AC3
Duration : 1 h 27 min
Bit rate mode : Constant
Bit rate : 192 kb/s
Channel(s) : 2 channels
Channel layout : L R
Sampling rate : 48.0 kHz
Frame rate : 31.250 FPS (1536 SPF)
Compression mode : Lossy
Stream size : 120 MiB (2%)
Title : DVO - Yuka_chan & datynet
Language : Russian
Service kind : Complete Main
Default : Yes
Forced : No

Audio #2
ID : 3
Format : AC-3
Format/Info : Audio Coding 3
Commercial name : Dolby Digital
Codec ID : A_AC3
Duration : 1 h 27 min
Bit rate mode : Constant
Bit rate : 192 kb/s
Channel(s) : 2 channels
Channel layout : L R
Sampling rate : 48.0 kHz
Frame rate : 31.250 FPS (1536 SPF)
Compression mode : Lossy
Stream size : 120 MiB (2%)
Language : English
Service kind : Complete Main
Default : No
Forced : No

Text
ID : 4
Format : PGS
Muxing mode : zlib
Codec ID : S_HDMV/PGS
Codec ID/Info : Picture based subtitle format used on BDs/HD-DVDs
Duration : 1 h 27 min
Bit rate : 28.1 kb/s
Count of elements : 2583
Stream size : 17.6 MiB (0%)
Language : English
Default : No
Forced : No

Menu
00:00:00.000 : :Chapter 1
00:06:08.618 : :Chapter 2
00:16:01.419 : :Chapter 3
00:31:02.778 : :Chapter 4
00:40:08.740 : :Chapter 5
00:48:31.909 : :Chapter 6
01:02:38.129 : :Chapter 7
01:10:34.105 : :Chapter 8
01:19:55.916 : :Chapter 9

!bober100 писал(а):


Присутствует ненормативная лексика! 18+
Рекламы нет!



Скачать В лесу не сношаться! 2 через торрент https://i121.fastpic.org/big/2023/0102/d0/f9b70e5d370a5a9804b50da853da35d0.png Скачать, смотреть онлайн В лесу не сношаться! 2 бесплантно в хорошем качестве Описание: Вожатые летнего лагеря Пайн-Хиллз готовят территорию к сезону. Пока они всё обустраивают, в лагерь проникает странная ... 8.9 10 7
Торрент: Зарегистрирован [2023-01-09 09:27] · скачан: 67 раз
Статус: T временная
Размер: 6.35 GB
Как cкачать? Как скачать В лесу не сношаться! 2 через торрент | UTorrent

28-11-2019 20:33  


Отключить вcю реклaмy на сайте, в т.ч. и в плеере онлайн просмотра!

09-01-2023 10:25 В лесу не сношаться! 2 Скачать торрент  

рейтинг на imdb -100500)))
Кто вообще придумывает такие названия)



09-01-2023 11:44 В лесу не сношаться! 2 Скачать торрент  

Жанр: Ужасы
Конечно, сисек то нет.



09-01-2023 14:52 В лесу не сношаться! 2 Скачать торрент  

оказывается есть и первая часть даже)



09-01-2023 16:55 В лесу не сношаться! 2 Скачать торрент  

6 гб? на это?



09-01-2023 21:03 В лесу не сношаться! 2 Скачать торрент  

vlniktt писал(а):

6 гб? на это?

что поделать, не у всех же мониторы и телеки с разрешением 1024х768.



10-01-2023 12:39 В лесу не сношаться! 2 Скачать торрент  

vegapiratradio писал(а):

что поделать, не у всех же мониторы и телеки с разрешением 1024х768.

такое только в 320х240



10-01-2023 17:30 В лесу не сношаться! 2 Скачать торрент  

Bobr751 писал(а):

Жанр: Ужасы
Конечно, сисек то нет.

так сисек вообще в фильме нет?



24-01-2023 11:20 В лесу не сношаться! 2 Скачать торрент  

если сисек нет,качать не буду



25-01-2023 06:23 В лесу не сношаться! 2 Скачать торрент  

и я не буду! как это нет сисек?!



    Дорогой пользователь! Огромная просьба, поблагодарите релизера, оцените раздачу и оставьте свои комментарий, если Вы скачали В лесу не сношаться! 2 через торрент бесплатно!!
    Комментировать посты могут только пользователи прошедшие не сложную регистрацию
    Показать сообщения:    


    В лесу не сношаться! 2 через торрент
    Скачать бесплатно В лесу не сношаться! 2
    В лесу не сношаться! 2 скачать торрент
    В лесу не сношаться! 2 смотреть онлайн
    Cкачать фильм В лесу не сношаться! 2 бесплатно
    В лесу не сношаться! 2 скачать торрент в хорошем качестве
    В лесу не сношаться! 2 смотреть онлайн бесплатно в хорошем качестве
    Вы не можете начинать темы
    Вы не можете отвечать на сообщения
    Вы не можете редактировать свои сообщения
    Вы не можете удалять свои сообщения
    Вы не можете голосовать в опросах
    Вы не можете прикреплять файлы к сообщениям
    Вы можете скачивать файлы
    В лесу не сношаться! 2 / Don't Fuck in the Woods 2 [2022, Ужасы, BDRip 1080p] DVO [Yuka_chan & datynet] смотреть онлайн, скачать торрент picoco.icu