Достать ножи: Стеклянная луковица

MVO

Добыча

Дубляж

Уэнсдэй

1 сезон

Тор

Дубляж

13 клиническая

1 сезон

Жестокая ночь

MVO

Одни из нас

1 сезон

Deluxe

pack

Рекомендуем

30

Пиратка

ВАЖНО

ВАЖНО

Ghostwire

Пиратка

jed

RePack

nioh2

RePack

RDR2

RePack

NEED FOR SPEED™ PAYBACK

RePack

скачать торрент

Кинопоиск HD

Острые козырьки 6 сезон

6 сезон

FAR CRY 6

RePack

скачать торрент

Лицензия

скачать торрент

MVO

1

1 сезон

скачать торрент

1 сезон

скачать торрент

Лицензия

  

Месть женщин сёгун (13 монахинь) в 3Д / Revenge of the Shogun Women (13 Nuns) 3D (Ричард Каан / Mei-Chun Chang) [1977, боевик, драма, BDRip, 1080p] OverUnder / Вертикальная стереопара

Месть женщин сёгун через торрент 02d2.vidak.icu

Размер: 18.52 GB | Добавлен: 23 д. назад | Торрент скачан:3 раза
Смотреть онлайн | Скачать | Поддержите нас   

04-01-2023 14:24 Месть женщин сёгун Скачать торрент  

Месть женщин сёгун (13 монахинь) / Revenge of the Shogun Women (13 Nuns)

Год выпуска: 1977
Страна: Тайвань, Гонконг
Жанр: боевик, драма
Продолжительность: 01:25:56

Перевод: Любительский одноголосый закадровый (Ash61 по собственному переводу)
Русские субтитры: нет
Режиссеры: Ричард Каан / Mei-Chun Chang

В ролях: Shiusen Leong (доктор Чау), Shirley Han (Ву Чинь), Sang Shi Choon (господин Лью), Bai Ying (главарь бандитов), Kim Yung Koo (художник Чу), Soo Chew (Хан Лью), Ming Sai Koon (госпожа Лью), Mei Fong Lee (мать Минг Чун)

Описание: В конце 18 века в Китае орды бандитов кочевали по провинциям, мародёрствуя и грабя. Истреблялись целые деревни. ВырезАли мужчин, женщин и детей. Женщин также насиловали.
Согласно общественным обычаям того времени, жертв изнасилования, поскольку они больше не были девственницами, отправляли в монастыри. Под строгим и мудрым руководством монахинь сёгун эти девушки обучались Откровениям Будды и овладевали техникой боевых искусств. Они становились женщинами сёгун, способными защитить себя и других от бандитов-мародеров.

Сэмпл: http://sendfile.su/1663212

Качество: BDrip, 1080p
Контейнер: MKV
Формат 3D: OverUnder / Вертикальная стереопара
Порядок ракурсов: левый ракурс первый
Видео кодек: x264
Аудио кодек: AC3
Видео: AVC / [email protected] / 23,976 fps / 1920х2160 / 29,2 Мбит/сек
Аудио: Русский / AC3 / 48 KHz / 2.0 ch / 448 Кбит/сек(Ash61)
Аудио 2: Английский / AC3 / 48 KHz / 2.0 ch / 448 Кбит/сек

ВНИМАНИЕ ! На встроенных ТВ-плеерах работать не будет!!!

ТВ Samsung в названии которого есть надпись Ultra HD , и LG Ultra HD 800 серии, LG C6P, LG UF950V, Xiaomi Mi TV 2, GRUNDIG VLE 8474 BL, Samsung UE48H6200AK, SUPRA STV-LC42ST960UL00 воспроизводят полные стереопары встроенными плеерами
Железные плееры на которых воспроизводятся полные стереопары:Popcorn C-200, Popcorn a-400, Dune HD Smart D1 , Dune HD DUO , Dune HD Smart H1 , Dune HD Smart B1 , Dune HD Max , Dune HD TV-303D, Dune HD TV-102, Dune HD Base 3D, Philips HMP7001, Aura HD, MECOOL BB2, Zidoo x9s, Lake I Cloud, MiBox 3, Oculus Quest 2
Чтобы изображение было на весь экран в плеере выставляем, если рип 1920х1600 - то выставляем 2.35:1 , если 1920х2160 - то выставляем 16:9

Общее
Уникальный идентификатор : 197405486599758833347912521393503526082 (0x9482E9EDACC50211ADC0F2B1BEE4DCC2)
Полное имя : G:\video\Revenge of the Shogun Women.Rip by SeRoGa00.mkv
Формат : Matroska
Версия формата : Version 2
Размер файла : 18,5 Гбайт
Продолжительность : 1 ч. 26 м.
Общий поток : 30,7 Мбит/сек
Дата кодирования : UTC 2022-01-10 04:51:46
Программа кодирования : mkvmerge v4.9.1 ('Ich will') сборка от Jul 11 2011 23:53:15
Библиотека кодирования : libebml v1.2.1 + libmatroska v1.1.1

Видео
Идентификатор : 1
Формат : AVC
Формат/Информация : Advanced Video Codec
Профиль формата : [email protected]
Параметр CABAC формата : Да
Параметр ReFrames формата : 4 кадра
Идентификатор кодека : V_MPEG4/ISO/AVC
Продолжительность : 1 ч. 26 м.
Битрейт : 29,2 Мбит/сек
Ширина : 1920 пикселей
Высота : 2160 пикселей
Соотношение сторон : 0,889
Частота кадров : 23,976 кадра/сек
Цветовое пространство : YUV
Субдискретизация насыщенности : 4:2:0
Битовая глубина : 8 бит
Тип развёртки : Прогрессивная
Бит/(Пиксели*Кадры) : 0.293
Размер потока : 17,6 Гбайт (95%)
Заголовок : Rip by SeRoGa00
Библиотека кодирования : x264 core 157 r2969 d4099dd
Настройки программы : cabac=1 / ref=4 / deblock=1:-3:-3 / analyse=0x3:0x113 / me=umh / subme=10 / psy=1 / psy_rd=1.00:0.15 / mixed_ref=1 / me_range=24 / chroma_me=1 / trellis=2 / 8x8dct=1 / cqm=0 / deadzone=21,11 / fast_pskip=1 / chroma_qp_offset=-3 / threads=12 / lookahead_threads=6 / sliced_threads=0 / nr=0 / decimate=0 / interlaced=0 / bluray_compat=0 / constrained_intra=0 / bframes=10 / b_pyramid=2 / b_adapt=2 / b_bias=0 / direct=3 / weightb=1 / open_gop=0 / weightp=2 / keyint=250 / keyint_min=23 / scenecut=40 / intra_refresh=0 / rc_lookahead=60 / rc=crf / mbtree=1 / crf=16.5 / qcomp=0.60 / qpmin=10 / qpmax=69 / qpstep=4 / vbv_maxrate=40000 / vbv_bufsize=40000 / crf_max=0.0 / nal_hrd=none / filler=0 / ip_ratio=1.40 / aq=1:1.00
Язык : English
Default : Да
Forced : Нет

Аудио #1
Идентификатор : 2
Формат : AC-3
Формат/Информация : Audio Coding 3
Расширение режима : CM (complete main)
Параметр Endianness формата : Big
Идентификатор кодека : A_AC3
Продолжительность : 1 ч. 26 м.
Вид битрейта : Постоянный
Битрейт : 448 Кбит/сек
Каналы : 2 канала
Расположение каналов : Front: L R
Частота : 48,0 КГц
Битовая глубина : 16 бит
Метод сжатия : С потерями
Размер потока : 277 Мбайт (1%)
Язык : Russian
Default : Да
Forced : Нет

Аудио #2
Идентификатор : 3
Формат : AC-3
Формат/Информация : Audio Coding 3
Расширение режима : CM (complete main)
Параметр Endianness формата : Big
Идентификатор кодека : A_AC3
Продолжительность : 1 ч. 26 м.
Вид битрейта : Постоянный
Битрейт : 448 Кбит/сек
Каналы : 2 канала
Расположение каналов : Front: L R
Частота : 48,0 КГц
Битовая глубина : 16 бит
Метод сжатия : С потерями
Размер потока : 277 Мбайт (1%)
Язык : English
Default : Нет
Forced : Нет

Меню
00:00:00.000 : :1
00:10:00.099 : :2
00:19:41.097 : :3
00:29:18.298 : :4
00:40:11.200 : :5
00:48:36.372 : :6
00:58:33.760 : :7
01:07:08.858 : :8
01:17:07.623 : :9



Скачать Месть женщин сёгун через торрент https://i6-imageban-ru.translate.goog/out/2023/01/04/59392d10e2d7a17dda01b770bd7a41ed.png Скачать, смотреть онлайн Месть женщин сёгун бесплантно в хорошем качестве Описание: В конце 18 века в Китае орды бандитов кочевали по провинциям, мародёрствуя и грабя. Истреблялись целые деревни. ВырезАли мужчин, ... 5 10 1
Торрент: Зарегистрирован [2023-01-04 14:24] · скачан: 3 раз
Статус: √ проверено
Размер: 18.52 GB
Как cкачать? Как скачать Месть женщин сёгун через торрент | UTorrent

28-11-2019 20:33  


Отключить вcю реклaмy на сайте, в т.ч. и в плеере онлайн просмотра!

    Дорогой пользователь! Огромная просьба, поблагодарите релизера, оцените раздачу и оставьте свои комментарий, если Вы скачали Месть женщин сёгун через торрент бесплатно!!
    Комментировать посты могут только пользователи прошедшие не сложную регистрацию
    Показать сообщения:    


    Месть женщин сёгун через торрент
    Скачать бесплатно Месть женщин сёгун
    Месть женщин сёгун скачать торрент
    Месть женщин сёгун смотреть онлайн
    Cкачать фильм Месть женщин сёгун бесплатно
    Месть женщин сёгун скачать торрент в хорошем качестве
    Месть женщин сёгун смотреть онлайн бесплатно в хорошем качестве
    Вы не можете начинать темы
    Вы не можете отвечать на сообщения
    Вы не можете редактировать свои сообщения
    Вы не можете удалять свои сообщения
    Вы не можете голосовать в опросах
    Вы не можете прикреплять файлы к сообщениям
    Вы можете скачивать файлы
    Месть женщин сёгун в 3Д / Revenge of the Shogun Women 3D [1977, боевик, драма, BDRip, 1080p] OverUnder / Вертикальная стереопара смотреть онлайн, скачать торрент picoco.icu