Достать ножи: Стеклянная луковица

MVO

Добыча

Дубляж

Уэнсдэй

1 сезон

Тор

Дубляж

13 клиническая

1 сезон

Жестокая ночь

MVO

Одни из нас

1 сезон

Deluxe

pack

Рекомендуем

30

Пиратка

ВАЖНО

ВАЖНО

Ghostwire

Пиратка

jed

RePack

nioh2

RePack

RDR2

RePack

NEED FOR SPEED™ PAYBACK

RePack

скачать торрент

Кинопоиск HD

Острые козырьки 6 сезон

6 сезон

FAR CRY 6

RePack

скачать торрент

Лицензия

скачать торрент

MVO

1

1 сезон

скачать торрент

1 сезон

скачать торрент

Лицензия

  

Вампиры средней полосы / Сезон: 2 / Серии: 1-7 из 8 (Дмитрий Грибанов) [2022, Детектив, комедия, фэнтези, WEBRip-AVC]

Вампиры средней полосы через торрент 02d2.vidak.icu

Раздают: 7 [ 303 KB/s ] Качают: 6 [ 0 KB/s ]
Размер: 5.33 GB | Добавлен: 3 д. назад | Торрент скачан:25 раз
Смотреть онлайн | Скачать | Поддержите нас   

13-12-2022 04:35 Вампиры средней полосы Скачать торрент  

Вампиры средней полосы 2
Год выпуска: 2022
Страна: Россия
Студия: OOO «Старт Студио»
Жанр: Детектив, комедия, фэнтези
Продолжительность: ~ 00:50:00 серия
Перевод: Не требуется
Субтитры: Русские, английские

Режиссер: Дмитрий Грибанов

rating

В ролях: Юрий Стоянов, Татьяна Догилева, Артём Ткаченко, Ольга Медынич, Дмитрий Лысенков, Ева Смирнова, Екатерина Ланн, Вероника Лысакова, Юлия Беляева, Анастасия Стежко, Лукерья Ильяшенко, Дмитрий Чеботарёв, Андрей Соколов, Виталия Корниенко, Дмитрий Мальцев, Артём Федотов, Павел Южаков-Харланчук, Игорь Хрипунов, Юлия Макарова, Владимир Брест, Виталий Щербина, Николай Соловьёв, Екатерина Болотова, Олег Грисевич, Виктор Бабак, Сергей Кореньков, Тимур Бурин, Александр Волков, Маргарита Шабардыгина, Денис Сладков, Данил Смирнов, Николай Новгородцев, Денис Шаблий, Артём Жигулин, Татьяна Монахова, Андрей Артамонов

Описание: С летним сезоном в Смоленске появилось не только тепло, но и новые герои - от девочки Милы, ставшей свидетельницей странных убийств, до нового следователя, который много лет назад уже приезжал в город и теперь с удивлением обнаруживает в местном отделении полиции знакомое лицо. Семье деда Славы предстоит немало испытаний: им нужно сохранить свою тайну, вновь защитить город от сил зла и... ужиться с новым Хранителем.

Качество: WEBRip-AVC
Формат: MKV

Видео: MPEG-4 AVC, ~ 1600 Кбит/с, 1024x432, 25 кадр/с
Аудио: 48.0 kHz, AC3 Dolby Digital, 2/0 (L,R) ch, ~ 192 kbps
скриншот  скриншот  скриншот  скриншот  

General
Unique ID : 246244741680354207421670578423675602023 (0xB941031D3EFD7567A324A04B6E0DC467)
Complete name : F:\Вампиры средней полосы.S02.(2022).WEBRip.(AVC).Files-x\01.Вампиры средней полосы.S02.(2022).WEBRip.(AVC).by.Серый1779.Files-x.mkv
Format : Matroska
Format version : Version 2
File size : 781 MiB
Duration : 1 h 0 min
Overall bit rate : 1 793 kb/s
Encoded date : UTC 2022-12-12 22:55:12
Writing application : mkvmerge v7.8.0 ('River Man') 32bit built on Apr 3 2015 12:11:22
Writing library : libebml v1.3.1 + libmatroska v1.4.2

Video
ID : 1
Format : AVC
Format/Info : Advanced Video Codec
Format profile : [email protected]
Format settings : CABAC / 9 Ref Frames
Format settings, CABAC : Yes
Format settings, RefFrames : 9 frames
Codec ID : V_MPEG4/ISO/AVC
Duration : 1 h 0 min
Bit rate : 1 600 kb/s
Width : 1 024 pixels
Height : 432 pixels
Display aspect ratio : 2.40:1
Frame rate mode : Constant
Frame rate : 25.000 FPS
Color space : YUV
Chroma subsampling : 4:2:0
Bit depth : 8 bits
Scan type : Progressive
Bits/(Pixel*Frame) : 0.145
Stream size : 682 MiB (87%)
Writing library : x264 core 146 r2538 121396c
Encoding settings : cabac=1 / ref=9 / deblock=1:-2:-1 / analyse=0x3:0x133 / me=umh / subme=9 / psy=1 / psy_rd=1.00:0.15 / mixed_ref=1 / me_range=32 / chroma_me=1 / trellis=2 / 8x8dct=1 / cqm=0 / deadzone=21,11 / fast_pskip=0 / chroma_qp_offset=-3 / threads=18 / lookahead_threads=3 / sliced_threads=0 / nr=0 / decimate=1 / interlaced=0 / bluray_compat=0 / constrained_intra=0 / bframes=9 / b_pyramid=2 / b_adapt=2 / b_bias=0 / direct=1 / weightb=1 / open_gop=0 / weightp=2 / keyint=250 / keyint_min=25 / scenecut=40 / intra_refresh=0 / rc=2pass / mbtree=0 / bitrate=1600 / ratetol=1.0 / qcomp=0.60 / qpmin=0 / qpmax=69 / qpstep=4 / cplxblur=20.0 / qblur=0.5 / ip_ratio=1.40 / pb_ratio=1.30 / aq=2:1.00
Default : Yes
Forced : No
Color range : Limited
Color primaries : BT.709
Transfer characteristics : BT.709
Matrix coefficients : BT.709

Audio
ID : 2
Format : AC-3
Format/Info : Audio Coding 3
Format settings, Endianness : Big
Codec ID : A_AC3
Duration : 1 h 0 min
Bit rate mode : Constant
Bit rate : 192 kb/s
Channel(s) : 2 channels
Channel positions : Front: L R
Sampling rate : 48.0 kHz
Frame rate : 31.250 FPS (1536 SPF)
Bit depth : 16 bits
Compression mode : Lossy
Stream size : 83.6 MiB (11%)
Service kind : Complete Main
Default : Yes
Forced : No

Когда раздача ведётся путём добавления новых серий, при каждом добавлении создётся новый торрент. Чтобы начать докачку новой серии, пользователям необходимо сделать следующее:
(1) остановить скачивание,
(2) удалить старый торрент у себя из клиента (старые серии удалять не надо),
(3) скачать новый торрент и запустить его у себя в клиенте вместо старого, при этом указать клиенту путь в старую папку, куда и должно происходить скачивание новых серий.
Ваш клиент при этом должен произвести хеширование (проверку) старой папки (если не производит сам - помогите ему сделать это), и будет докачивать только те серии, которых у вас ещё нет. Старые серии при этом не удаляются, а продолжают раздаваться!
Eсли вы уже удалили старые серии, то предотвратить повторную закачку старых серий можно, отжав галочку в соответсвующих местах при запуске нового торрента. По возможности, желательно не удалять старые серии как можно дольше, чтобы релизёр не столько продолжал раздавать старые серии, а смог сконцентрироваться на новых.




Скачать Вампиры средней полосы через торрент https://i121.fastpic.org/big/2022/1213/95/266311223e3d99cde2422c2d80300295.jpg Скачать, смотреть онлайн Вампиры средней полосы бесплантно в хорошем качестве Описание: С летним сезоном в Смоленске появилось не только тепло, но и новые герои - от девочки Милы, ставшей свидетельницей странных ... 8.9 10 8
Торрент: Зарегистрирован [2023-01-24 21:08] · скачан: 25 раз
Статус: √ проверено
Размер: 5.33 GB
Как cкачать? Как скачать Вампиры средней полосы через торрент | UTorrent

% Раздел Тема Автор DL S | L
Наши сериалы [ 19.9 GB ] Вампиры средней полосы / Сезон: 2 / Серии: 1-7 из 8 | | 1080p bober100 Скачать
12 | 31
Наши сериалы [ 5.62 GB ] Вампиры средней полосы / Сезон: 2 / Серии: 1-7 из 8 | | WEBRip bober100 Скачать
16 | 19

28-11-2019 20:33  


Отключить вcю реклaмy на сайте, в т.ч. и в плеере онлайн просмотра!

    Дорогой пользователь! Огромная просьба, поблагодарите релизера, оцените раздачу и оставьте свои комментарий, если Вы скачали Вампиры средней полосы через торрент бесплатно!!
    Комментировать посты могут только пользователи прошедшие не сложную регистрацию
    Показать сообщения:    


    Вампиры средней полосы через торрент
    Скачать бесплатно Вампиры средней полосы
    Вампиры средней полосы скачать торрент
    Вампиры средней полосы смотреть онлайн
    Cкачать фильм Вампиры средней полосы бесплатно
    Вампиры средней полосы скачать торрент в хорошем качестве
    Вампиры средней полосы смотреть онлайн бесплатно в хорошем качестве
    Вы не можете начинать темы
    Вы не можете отвечать на сообщения
    Вы не можете редактировать свои сообщения
    Вы не можете удалять свои сообщения
    Вы не можете голосовать в опросах
    Вы не можете прикреплять файлы к сообщениям
    Вы можете скачивать файлы
    Вампиры средней полосы / Сезон: 2 / Серии: 1-7 из 8 [2022, Детектив, комедия, фэнтези, WEBRip-AVC] смотреть онлайн, скачать торрент picoco.icu